Warning: fopen(/var/www/tera-soft/data/www/tera-soft.net/setlinks_6321f/cache/tera-soft.net.links): failed to open stream: Permission denied in /var/www/tera-soft/data/www/tera-soft.net/setlinks_6321f/slclient.php on line 150 Warning: fopen(/var/www/tera-soft/data/www/tera-soft.net/setlinks_6321f/cache/tera-soft.net.links): failed to open stream: Permission denied in /var/www/tera-soft/data/www/tera-soft.net/setlinks_6321f/slclient.php on line 150 Lordi - The Monster Show (2004) » :: Tera.Soft ::
 » Главная страница
 » Музыка
 » Разное
 » Фильмы
 » Игры
 » Софт
 » Мобилка/КПК
 » Рабочий стол
 » Ключи для антивирусов
Карта сайта
Lordi - The Monster Show (2004) Музыка
Lordi - The Monster Show (2004)
Performer: Lordi
Album: The Monster Show
Genre: Hard Rock
Year: 2004
Format: FLAC (image + .cue)|Mp3
Bitrate: lossless|320 kbps
Covers: in archive
Amount of tracks: 12
Size RAR: ~ 395|154 mb
Upload: Letitbit.net; DepositFiles; Turbobit.net
Recovery: 3%
Password: without a password

Tracklist:
-------------------------
01. Threatical Trailer
02. Bring It On
03. Blood Red Sandman
04. My Heaven Is Your Hell
05. Would You Love a Monsterman
06. Devil Is A Loser
07. Icon of Dominance
08. The Children Of The Night
09. Shotgun Divorce
10. Forsaken Fashion Dolls
11. Wake The Snake
12. Rock The Hell Outta You

[spoiler="Информация о альбоме"]Второй альбом финских металлических монстров, исполняющих старый добрый мелодичный heavy metal. Новая порция страшилок LORDI звучит тяжелее по сравнению с дебютным альбомом Get Heavy. Включает сингл Blood Red Sandman. Продюсером записи выступил Hiili Hiilesmaa (H.I.M., SENTENCED, AMORPHIS).[/spoiler]
[spoiler="Log EAC"]Exact Audio Copy V0.99 prebeta 5 from 4. May 2009

Отчёт EAC об извлечении, выполненном 29. мая 2010, 16:12

LORDI / THE MONSTER SHOW

Дисковод: HL-DT-STDVDRAM GSA-4082N Adapter: 1 ID: 0

Режим чтения : Достоверность
Использование точного потока : Да
Отключение кэша аудио : Да
Использование указателей C2 : Нет

Коррекция смещения при чтении : 667
Способность читать области Lead-in и Lead-out : Нет
Заполнение пропущенных сэмплов тишиной : Да
Удаление блоков с тишиной в начале и конце : Нет
При вычислениях CRC использовались нулевые сэмплы : Да
Интерфейс : Установленный внешний ASPI-интерфейс

Выходной формат : Пользовательский кодировщик
Выбранный битрейт : 1024 kBit/s
Качество : Высокий
Добавление ID3-тэга : Нет
Утилита сжатия : C:\Program Files\Exact Audio Copy\FLAC\FLAC.EXE
Дополнительные параметры : -6 -V -T "ARTIST=%a" -T "TITLE=%t" -T "ALBUM=%g" -T "DATE=%y" -T "TRACKNUMBER=%n" -T "GENRE=%m" -T "COMMENT=%e" %s -o %d


TOC извлечённого CD

Трек | Старт | Длительность | Начальный сектор | Конечный сектор
---------------------------------------------------------------------
1 | 0:00.00 | 1:09.17 | 0 | 5191
2 | 1:09.17 | 4:35.40 | 5192 | 25856
3 | 5:44.57 | 4:03.34 | 25857 | 44115
4 | 9:48.16 | 3:41.74 | 44116 | 60764
5 | 13:30.15 | 3:02.12 | 60765 | 74426
6 | 16:32.27 | 3:31.40 | 74427 | 90291
7 | 20:03.67 | 4:36.47 | 90292 | 111038
8 | 24:40.39 | 3:44.08 | 111039 | 127846
9 | 28:24.47 | 4:42.04 | 127847 | 149000
10 | 33:06.51 | 3:45.62 | 149001 | 165937
11 | 36:52.38 | 3:46.21 | 165938 | 182908
12 | 40:38.59 | 3:05.70 | 182909 | 196853


Характеристики диапазона извлечения и сообщения об ошибках

Выбранный диапазон

Имя файла C:\RNB\LORDI - THE MONSTER SHOW.wav

Пиковый уровень 98.8 %
Качество диапазона 100.0 %
CRC копии A2B8719A
Копирование... OK

Ошибок не произошло[/spoiler]
[spoiler="Log Audiochecker"]AUDIOCHECKER v2.0 beta (build 457) - by Dester - opdester@freemail.hu
~~~~~~~~~~~~~~~~~~~~~~~~~~~~~~~~~~
-=== НЕ РЕДАКТИРУЙТЕ ЭТОТ ФАЙЛ! ===-

Путь: ...\Lordi - The Monster Show (2004)

1 -=- LORDI - THE MONSTER SHOW.flac -=- CDDA (100%)

108148900[/spoiler]
Lossless
Слить | Download | letitbit.net
Слить | Download | turbobit.net
Слить | Download | depositfiles.com
Слить | Download | vip-file.com
Mp3
Слить | Download | letitbit.net
Слить | Download | turbobit.net
Слить | Download | depositfiles.com
Слить | Download | vip-file.com
Слить "Lordi - The Monster Show (2004)" с Letitbit.net Ссылка 1
Слить "Lordi - The Monster Show (2004)" с Letitbit.net Ссылка 2

 

 
Уважаемый посетитель вы вошли на сайт как незарегистрированный пользователь. Мы рекомендуем вам зарегистрироваться либо войти на сайт под своим именем.


Портал tera-soft.net | Проги | Фильмы |  Приколы | Раздача асек | Все самое полезное

Май 2018 (2)
Апрель 2018 (1)
Декабрь 2017 (2)
Октябрь 2017 (2)
Май 2017 (1)
Март 2017 (1)

Nod 32
 
© 2008-200*. www.tera-soft.net
Все права защищены :)